#TITLE:INVOKE;
#SUBTITLE:;
#ARTIST:T.M.Revolution;
#TITLETRANSLIT:;
#SUBTITLETRANSLIT:;
#ARTISTTRANSLIT:;
#CREDIT:;
#BANNER:INVOKE-logo.jpg;
#BACKGROUND:INVOKE.jpg;
#LYRICSPATH:;
#CDTITLE:Lan.png;
#MUSIC:INVOKE.mp3;
#OFFSET:-0.020;
#SAMPLESTART:100.000;
#SAMPLELENGTH:12.000;
#SELECTABLE:YES;
#BPMS:0.000=152.000;
#STOPS:;
#BGCHANGES:;
// cache tags:
#FIRSTBEAT:36.000;
#LASTBEAT:433.000;
#SONGFILENAME:Songs/SDO/INVOKE/INVOKE.sm;
#HASMUSIC:1;
#HASBANNER:1;
#MUSICLENGTH:173.679;
// end cache tags

//---------------dance-single - sky----------------
#NOTES:
     dance-single:
     sky:
     Hard:
     10:
     0.900,1.000,0.766,0.012,0.530,935.000,133.000,2.000,0.000,24.000:

0000
0000
0000
0000
,
0000
0000
0000
0000
,
0000
0000
0000
0000
,
0000
0000
0000
0000
,
0000
0000
0000
0000
,
0000
0000
0000
0000
,
0000
0000
0000
0000
,
0000
0000
0000
0000
,
0000
0000
0000
0000
,
1100
0010
0101
0010
1100
0001
0010
0100
,
0011
0100
0011
0100
0011
0100
1000
0100
,
0011
0100
1010
0100
1010
0100
0011
0100
,
1110
0000
0000
0111
0000
0000
0111
0000
1110
0000
0000
0111
0000
0000
1110
0000
,
0111
1000
0100
1000
0100
0010
0001
0100
0010
0100
1000
0100
0010
0001
0100
0010
,
0001
0010
0100
1000
0010
0100
0001
0010
1000
0100
0010
0001
0100
0010
0001
0100
,
1000
0010
0100
0010
0001
0010
0100
1000
0010
0100
1000
0100
0010
0001
0100
0010
,
1000
0001
0010
0100
1000
0010
0100
0010
1000
0100
0010
0001
0100
0010
0001
0100
,
1000
0010
0100
0010
0001
0100
1000
0010
0100
1000
0010
0100
0010
0001
0010
0100
,
1000
0010
0100
1000
0010
0100
0010
0001
0100
1000
0001
0010
0100
1000
0010
0100
,
1000
0100
0010
0001
0100
0010
0001
0100
1000
0010
0100
0010
0001
0010
0100
1000
,
0010
0001
0010
0100
1000
0010
0100
0001
0010
1000
0100
0010
0001
0100
0010
0100
,
1000
0100
0011
0000
0100
1000
0110
0000
0001
0010
1100
0000
0010
0100
1001
0000
,
0100
0010
0101
0000
1000
0100
0011
0000
0100
0001
1010
0000
0100
0001
1100
0000
,
0010
0100
0011
0000
0100
1000
0101
0000
0010
0100
1001
0000
1000
0100
1010
0000
,
0100
0010
0101
0000
1000
0001
0110
0000
0001
0010
1100
0000
0010
0100
0011
0000
,
1000
0001
0110
0000
0001
0010
1100
0000
0010
0100
1001
0000
0100
0010
1100
0000
,
0001
0010
1100
0000
0100
1000
0011
0000
0001
0010
1100
0000
0010
0100
1001
0000
,
0100
0010
1100
0000
0100
0010
1001
0000
0100
1000
0011
0000
0100
0010
1100
0000
,
0100
1000
0011
0000
1000
0100
0011
0000
0100
0001
1010
0000
0100
0001
1100
0000
,
0111
0100
1011
0100
1000
0100
0010
0001
,
1110
0001
0110
1000
0101
0010
1100
0001
,
1110
0001
0010
0100
1011
0100
1000
0100
,
1011
0000
0000
1110
0000
0000
0111
0000
1110
0000
0000
1110
0000
0000
0111
0000
,
1100
0010
0100
0010
1000
0010
0001
0010
,
1100
0010
0100
1000
0001
1000
0100
0001
,
0110
0010
1000
0100
0001
0100
1000
0100
,
1010
0100
0010
0001
0010
0100
1000
0010
,
1001
0100
0010
0100
1000
0100
0010
0001
,
1100
0010
0100
0001
0010
0100
1000
0100
,
0011
0100
1000
0001
0010
0100
1000
0010
,
0101
0010
0100
1000
0100
0010
0001
0010
,
1100
0010
0100
0001
0010
0100
1000
0001
,
1000
0100
0010
0001
0100
0010
0001
0010
0100
1000
0010
0100
0001
0010
0100
0001
,
1100
0010
0101
0010
1100
0001
0110
0001
,
1100
0010
0101
0010
1100
0100
1001
0010
,
1100
0001
0110
0001
1100
0010
0101
0010
,
0100
1000
0100
0010
0100
0001
0010
0100
1000
0010
0100
0001
0010
0100
1000
0010
,
0101
0000
0010
0000
1000
0100
0010
0000
0100
0000
0010
0000
0001
0010
0100
0000
,
1100
0000
0010
0000
1000
0100
0010
0000
0001
0000
0010
0000
1000
0001
0100
0000
,
1010
0000
0001
0000
0100
0010
0100
0000
1000
0000
0001
0000
0100
0010
1000
0000
,
0101
0000
0010
0000
1000
0100
0010
0000
0001
0000
0100
0000
0001
0010
0100
0000
,
1000
0100
0010
0001
0100
1000
0010
0100
,
0001
0010
0100
1000
0010
0100
1000
0001
,
0100
0010
1000
0100
0001
0010
1000
0100
,
0010
0001
0100
0010
0001
0010
0100
1000
,
0010
0100
1000
0010
0100
0010
0001
0100
,
1000
0010
0100
0001
0010
0100
1000
0010
,
0100
0010
0001
0010
0100
1000
0010
0100
,
1000
0100
0010
0001
0100
0010
1000
0001
0010
0100
1000
0010
0100
0001
0010
0100
,
1000
0100
0010
0001
0100
0010
0001
0100
,
1000
0010
0001
0100
0010
1000
0100
0010
,
0001
0100
0010
0001
0010
0100
1000
0010
,
0100
1000
0010
0100
0010
0001
0100
0010
,
1000
0100
1000
0100
1000
0100
0010
0001
0100
0010
0001
0010
0100
1000
0010
0100
,
0001
0010
0001
0010
0001
0010
0100
1000
0100
0010
0001
0100
1000
0010
0100
0001
,
0010
0010
0010
0010
,
0100
0100
0100
0100
,
2000
0000
0000
0000
,
3020
0000
0000
0000
,
1131
0000
0000
0111
0000
0000
1110
0000
0111
0000
0000
0111
0000
0000
1110
0000
,
0000
0000
0011
0100
1010
0100
1001
0100
,
0011
0100
1001
0010
1100
0100
1010
0100
,
0011
0100
0101
0010
1100
0001
0110
0001
,
1100
0010
1100
1000
0110
0100
0101
0010
,
1001
0010
1100
0010
0101
1000
0110
0001
,
1010
0100
0011
0100
1010
0001
0110
1000
,
1100
0010
0101
0001
0110
0001
1100
0010
,
0101
0001
0110
0001
1010
0001
1001
0010
,
1100
0010
0101
0010
1100
0100
0011
0001
,
1000
0100
0010
0001
0010
0100
1000
0100
0001
0010
0100
1000
0010
0100
0001
0010
,
0100
0001
0010
0100
1001
0000
0100
0000
0010
0000
0001
0000
0010
0000
0100
0000
,
1000
0010
0100
0010
0001
0100
0010
0100
,
1000
0010
0100
1000
0010
0100
0010
0001
,
0100
0001
0010
0100
1000
0010
0100
0010
,
0001
0100
0010
0100
1000
0010
0100
0010
,
0001
0010
0100
1000
0010
0100
1000
0010
,
0100
0001
0010
0100
1000
0010
0100
0001
,
0010
0100
1000
0010
0100
1000
0100
0010
,
0001
0000
0100
0000
0010
0001
0100
0010
1000
0001
0100
0010
0001
0100
0010
1000
,
0100
0010
1000
0100
0010
0001
0100
1000
0010
0100
0001
0100
0010
0001
0100
0010
,
1000
0001
0100
1000
0011
0000
0010
0000
0100
0000
1000
0000
0100
0000
0010
0000
,
0001
0010
0100
1000
0010
0100
1000
0100
,
0010
0001
1100
0010
0100
0001
0010
0100
,
1000
0010
0100
1000
0100
0010
0001
0010
,
0100
1000
0011
0100
0010
0001
0010
0100
,
1000
0100
0010
0100
1000
0100
0010
0001
,
0010
0100
1000
0100
0010
0001
0010
0100
,
1000
0000
0010
0000
1000
0100
0010
0001
0100
0010
0001
0100
1000
0010
0100
0010
,
0001
0010
0100
1000
0001
0000
0010
0000
0100
0000
1000
0000
0010
0000
0100
0000
,
1000
0100
0010
0001
0100
0010
0001
0100
,
1000
0010
0100
0001
0010
0100
1000
0100
,
0010
0001
0100
0010
0100
1000
0100
0010
,
0001
0100
0010
0001
0010
0100
1000
0010
,
0100
0001
0010
0100
1000
0010
0100
1000
,
0100
0010
0001
0100
0001
0010
0100
1000
,
0100
0001
0010
0100
1000
0010
0100
0010
,
0001
0010
0100
0000
0010
0000
1000
0000
,
0001
0010
0100
1000
,
0100
0010
0000
0000
;
